Торренты » Фильмы торрент » Военные » Второе дыхание: На рубеже атаки

Основные разделы

Реклама

Выбор по жанрам

Реклама

Второе дыхание: На рубеже атаки торрент скачать бесплатно

Торрент добавлен: 2-12-2011, 20:24 | Просмотров: 1348
Второе дыхание: На рубеже атаки    торрент скачать бесплатно

Скачать фильм Второе дыхание: На рубеже атаки через торрент бесплатно вы можете на данной странице открытого каталога торрентов «Мир торрентов». Если вы впервые сталкиваетесь с файлами торрент (torrent), то здесь можете ознакомиться, как скачать фильмы торрент бесплатно. Кроме торрент вы можете скачать фильм Второе дыхание: На рубеже атаки через магнит ссылку, что это такое - тоже можете ознакомиться у нас. Также у вас есть возможность скачать Второе дыхание: На рубеже атаки одним файлом и на большой скорости, с помощью приведенной ниже спонсорской ссылки. Приятного просмотра!

Год выхода фильма: 2008

Производство: Россия

Режисёр фильма: Михаил Туманишвили

В фильме снимались: Петр Красилов,Денис Никифоров,Никита Емшанов,Екатерина Климова,Всеволод Шиловский

Продолжительность фильма: 01:43:31

Коротко о фильме Второе дыхание: На рубеже атаки :
˙·٠٠•●››▼_//Второе дыхание: На рубеже атаки\_▼‹‹●•٠٠·˙
Главный герой картины — молодой прожигатель жизни Павел Макаров. Проснувшись после очередной вечеринки, он обнаруживает рядом с собой незнакомую девушку, которая всерьез предлагает жениться на ней, но получает отказ. Дочь местного авторитета, она не привыкла слышать слово «нет». И теперь Макарову грозят серьезные неприятности: ему приходится срочно покинуть родной город.
Release oferit de: ,
General
Unique ID : 192781964456076416818556905988138171224 (0x910874AFDB914C94A32FE54659CB7B58)
Complete name : C:Usersvictor_netDesktopx264Второе дыхание На рубеже атаки.2008.DVDRip.x264.1400mb. [MRG.victor_net] TMD.mkv
Format : Matroska
Format version : Version 2
File size : 1.36 GiB
Duration : 1h 43mn
Overall bit rate : 1 887 Kbps
Encoded date : UTC 2011-10-26 18:30:43
Writing application : mkvmerge v4.9.1 ('Ich will') built on Jul 11 2011 23:53:15
Writing library : libebml v1.2.1 + libmatroska v1.1.1
Video
ID : 1
Format : AVC
Format/Info : Advanced Video Codec
Format profile : High@L4.1
Format settings, CABAC : Yes
Format settings, ReFrames : 6 frames
Codec ID : V_MPEG4/ISO/AVC
Duration : 1h 43mn
Bit rate : 1 438 Kbps
Width : 720 pixels
Height : 400 pixels
Display aspect ratio : 16:9
Frame rate : 25.000 fps
Color space : YUV
Chroma subsampling : 4:2:0
Bit depth : 8 bits
Scan type : Progressive
Bits/(Pixel*Frame) : 0.200
Stream size : 1.01 GiB (74%)
Writing library : x264 core 116 r2074 2641b9e
Encoding settings : cabac=1 / ref=6 / deblock=1:-3:-3 / analyse=0x3:0x133 / me=hex / subme=7 / psy=1 / psy_rd=1.05:0.16 / mixed_ref=1 / me_range=16 / chroma_me=1 / trellis=1 / 8x8dct=1 / cqm=0 / deadzone=21,11 / fast_pskip=1 / chroma_qp_offset=-3 / threads=10 / sliced_threads=0 / nr=0 / decimate=1 / interlaced=0 / bluray_compat=0 / constrained_intra=0 / bframes=6 / b_pyramid=2 / b_adapt=0 / b_bias=3 / direct=2 / weightb=1 / open_gop=0 / weightp=2 / keyint=250 / keyint_min=25 / scenecut=40 / intra_refresh=0 / rc_lookahead=40 / rc=2pass / mbtree=1 / bitrate=1438 / ratetol=0.6 / qcomp=0.60 / qpmin=10 / qpmax=69 / qpstep=4 / cplxblur=20.0 / qblur=0.5 / ip_ratio=1.40 / aq=1:1.40
Language : English
Audio
ID : 2
Format : AC-3
Format/Info : Audio Coding 3
Mode extension : CM (complete main)
Codec ID : A_AC3
Duration : 1h 43mn
Bit rate mode : Constant
Bit rate : 448 Kbps
Channel(s) : 6 channels
Channel positions : Front: L C R, Side: L R, LFE
Sampling rate : 48.0 KHz
Bit depth : 16 bits
Compression mode : Lossy
Stream size : 332 MiB (24%)
Language : Russian
____________________________________________________________________________________________________________________________
© torrents.md

Качество Язык Перевод Дата добавления Размер файла Скачали Пиры Мультитрекер  
 Подробнее dvdrip Русский Оригинал (без перевода) 05.12.11 1.36 GB 55 Раздают0 Качают0 Filtered

__rotator_param_f


Категория: Фильмы торрент » Военные
Комментариев: 0