Торренты » Фильмы торрент » Ужасы » 28 дней спустя / 28 Days Later

Основные разделы

Реклама

Выбор по жанрам

Реклама

28 дней спустя / 28 Days Later торрент скачать бесплатно

Торрент добавлен: 2-12-2011, 20:32 | Просмотров: 572
28 дней спустя / 28 Days Later    торрент скачать бесплатно

Скачать фильм 28 дней спустя / 28 Days Later через торрент бесплатно вы можете на данной странице открытого каталога торрентов «Мир торрентов». Если вы впервые сталкиваетесь с файлами торрент (torrent), то здесь можете ознакомиться, как скачать фильмы торрент бесплатно. Кроме торрент вы можете скачать фильм 28 дней спустя / 28 Days Later через магнит ссылку, что это такое - тоже можете ознакомиться у нас. Также у вас есть возможность скачать 28 дней спустя / 28 Days Later одним файлом и на большой скорости, с помощью приведенной ниже спонсорской ссылки. Приятного просмотра!

Год выхода фильма: 2002

Производство: Великобритания

Режисёр фильма: Дэнни Бойл

В фильме снимались: Алекс Палмер,Бинду Де Стоппани,Юкка Хилтунен,Дэвид Шнайдер,Киллиан Мерфи,Тоби Седжвик,Наоми Харрис,Ной Хантли,Крис Данн,Эмма Хитчинг

Продолжительность фильма: 01:53:08

Коротко о фильме 28 дней спустя / 28 Days Later :
˙·٠٠•●››▼_//28 дней спустя / 28 Days Later\_▼‹‹●•٠٠·˙
Группа «зеленых» экстремистов вторгается в центр исследования приматов и выпускает из секретной научной лаборатории обезьяну, зараженную вирусом неудержимой агрессии. Смертельный вирус, передающийся через кровь за считанные секунды, приводит к мгновенному заражению, и, соприкасаясь с любым живым существом, превращает его в кровожадного монстра.
Через 4 недели вся Англия охвачена страшной эпидемией: многие люди эвакуируются, другие ищут безопасные места, в надежде спастись. Те, кому посчастливилось не заразиться, вместе с группой военных прячутся в заброшенном доме. Вместе им предстоит разобраться в ситуации и попытаться ее исправить…
Release oferit de: ,
General
Unique ID : 203573639251828828828021155290866229003 (0x9926DB556DE8D960915270C166239F0B)
Complete name : C:Usersvictor_netDesktopx26428 дней спустя. 2002.BDRip.x264.2100mb. [MRG.victor_net] TMD.mkv
Format : Matroska
File size : 2.05 GiB
Duration : 1h 53mn
Overall bit rate : 2 592 Kbps
Encoded date : UTC 2011-11-10 14:22:32
Writing application : mkvmerge v4.9.1 ('Ich will') built on Jul 11 2011 23:53:15
Writing library : libebml v1.2.1 + libmatroska v1.1.1
Video
ID : 1
Format : AVC
Format/Info : Advanced Video Codec
Format profile : High@L4.1
Format settings, CABAC : Yes
Format settings, ReFrames : 9 frames
Format settings, GOP : M=8, N=48
Codec ID : V_MPEG4/ISO/AVC
Duration : 1h 53mn
Bit rate : 1 694 Kbps
Width : 720 pixels
Height : 384 pixels
Display aspect ratio : 1.875
Frame rate : 23.976 fps
Color space : YUV
Chroma subsampling : 4:2:0
Bit depth : 8 bits
Scan type : Progressive
Bits/(Pixel*Frame) : 0.256
Stream size : 1.30 GiB (63%)
Writing library : x264 core 116 r2074 2641b9e
Encoding settings : cabac=1 / ref=9 / deblock=1:-3:-3 / analyse=0x3:0x133 / me=hex / subme=7 / psy=1 / psy_rd=1.05:0.16 / mixed_ref=1 / me_range=16 / chroma_me=1 / trellis=1 / 8x8dct=1 / cqm=0 / deadzone=21,11 / fast_pskip=1 / chroma_qp_offset=-3 / threads=10 / sliced_threads=0 / nr=0 / decimate=1 / interlaced=0 / bluray_compat=0 / constrained_intra=0 / bframes=7 / b_pyramid=2 / b_adapt=0 / b_bias=3 / direct=2 / weightb=1 / open_gop=0 / weightp=2 / keyint=250 / keyint_min=23 / scenecut=40 / intra_refresh=0 / rc_lookahead=40 / rc=2pass / mbtree=1 / bitrate=1694 / ratetol=0.6 / qcomp=0.60 / qpmin=10 / qpmax=69 / qpstep=4 / cplxblur=20.0 / qblur=0.5 / ip_ratio=1.40 / aq=1:1.40
Language : English
Audio #1
ID : 2
Format : AC-3
Format/Info : Audio Coding 3
Mode extension : CM (complete main)
Codec ID : A_AC3
Duration : 1h 53mn
Bit rate mode : Constant
Bit rate : 448 Kbps
Channel(s) : 6 channels
Channel positions : Front: L C R, Side: L R, LFE
Sampling rate : 48.0 KHz
Bit depth : 16 bits
Compression mode : Lossy
Stream size : 363 MiB (17%)
Language : Russian
Audio #2
ID : 3
Format : AC-3
Format/Info : Audio Coding 3
Mode extension : CM (complete main)
Codec ID : A_AC3
Duration : 1h 53mn
Bit rate mode : Constant
Bit rate : 448 Kbps
Channel(s) : 6 channels
Channel positions : Front: L C R, Side: L R, LFE
Sampling rate : 48.0 KHz
Bit depth : 16 bits
Compression mode : Lossy
Stream size : 363 MiB (17%)
Language : English
____________________________________________________________________________________________________________________________
© torrents.md

Качество Язык Перевод Дата добавления Размер файла Скачали Пиры Мультитрекер  
 Подробнее bdrip Русский Профессиональный (полное дублирование) 05.12.11 2.05 GB 11 Раздают0 Качают0 Filtered

__rotator_param_f


Категория: Ужасы, Фантастика
Комментариев: 0