Основные разделы

Реклама

Выбор по жанрам

Реклама

Ночь бойца торрент скачать бесплатно

Торрент добавлен: 2-12-2011, 20:36 | Просмотров: 691
Ночь бойца    торрент скачать бесплатно

Скачать фильм Ночь бойца через торрент бесплатно вы можете на данной странице открытого каталога торрентов «Мир торрентов». Если вы впервые сталкиваетесь с файлами торрент (torrent), то здесь можете ознакомиться, как скачать фильмы торрент бесплатно. Кроме торрент вы можете скачать фильм Ночь бойца через магнит ссылку, что это такое - тоже можете ознакомиться у нас. Также у вас есть возможность скачать Ночь бойца одним файлом и на большой скорости, с помощью приведенной ниже спонсорской ссылки. Приятного просмотра!

Год выхода фильма: 2009

Производство: Россия, Пигмалион.

Режисёр фильма: Душан Глигоров.

В фильме снимались: Анастасия Пронина,Нина Русланова,Евгений Цыганов,Алексей Панин,Владимир Стеклов,Сергей Чугин,Наталья Тетенова,Роман Артемьев,Юрий Маслак,Ричард Бондарев

Продолжительность фильма: ~01:27:59

Коротко о фильме Ночь бойца :
˙·٠٠•●››▼_//Ночь бойца\_▼‹‹●•٠٠·˙
Сумасшедший? Маньяк? Или дьявол, облекшийся в плоть кибер-бойца, о котором мечтает шестнадцатилетняя Лиза, повёрнутая на компьютерных играх? Сдвигается чугунная крышка люка, и из инфернальных недр подвала выходит Некто… В эту ночь в стенах старой кондитерской фабрики виртуальное становится реальным… В эту ночь пустынные цеха превращаются в лабиринты жесткой игры, в которую предстоит сыграть Лизе… Игры без правил. ИГРЫ, ГДЕ «МОЖНО ВСЁ»…
Release oferit de: ,
General
Unique ID : 170412111529145962066344707877720000921 (0x80342DC8FBEDD398AAAB1F9A20CF8999)
Complete name : C:Usersvictor_netDesktopx264Ночь бойца. 2009.DVDRip.x264.1400mb. [MRG.victor_net].mkv
Format : Matroska
File size : 1.37 GiB
Duration : 1h 27mn
Overall bit rate : 2 221 Kbps
Encoded date : UTC 2011-11-27 18:11:37
Writing application : mkvmerge v4.9.1 ('Ich will') built on Jul 11 2011 23:53:15
Writing library : libebml v1.2.1 + libmatroska v1.1.1
Video
ID : 1
Format : AVC
Format/Info : Advanced Video Codec
Format profile : High@L4.1
Format settings, CABAC : Yes
Format settings, ReFrames : 12 frames
Codec ID : V_MPEG4/ISO/AVC
Duration : 1h 27mn
Bit rate : 1 772 Kbps
Width : 720 pixels
Height : 304 pixels
Display aspect ratio : 2.35:1
Frame rate : 25.000 fps
Color space : YUV
Chroma subsampling : 4:2:0
Bit depth : 8 bits
Scan type : Progressive
Bits/(Pixel*Frame) : 0.324
Stream size : 1.06 GiB (78%)
Writing library : x264 core 116 r2074 2641b9e
Encoding settings : cabac=1 / ref=12 / deblock=1:-3:-3 / analyse=0x3:0x133 / me=hex / subme=7 / psy=1 / psy_rd=1.05:0.16 / mixed_ref=1 / me_range=16 / chroma_me=1 / trellis=1 / 8x8dct=1 / cqm=0 / deadzone=21,11 / fast_pskip=1 / chroma_qp_offset=-3 / threads=10 / sliced_threads=0 / nr=0 / decimate=1 / interlaced=0 / bluray_compat=0 / constrained_intra=0 / bframes=7 / b_pyramid=2 / b_adapt=0 / b_bias=3 / direct=2 / weightb=1 / open_gop=0 / weightp=2 / keyint=250 / keyint_min=25 / scenecut=40 / intra_refresh=0 / rc_lookahead=40 / rc=2pass / mbtree=1 / bitrate=1772 / ratetol=0.6 / qcomp=0.60 / qpmin=10 / qpmax=69 / qpstep=4 / cplxblur=20.0 / qblur=0.5 / ip_ratio=1.40 / aq=1:1.40
Language : English
Audio
ID : 2
Format : AC-3
Format/Info : Audio Coding 3
Mode extension : CM (complete main)
Codec ID : A_AC3
Duration : 1h 27mn
Bit rate mode : Constant
Bit rate : 448 Kbps
Channel(s) : 6 channels
Channel positions : Front: L C R, Side: L R, LFE
Sampling rate : 48.0 KHz
Bit depth : 16 bits
Compression mode : Lossy
Stream size : 282 MiB (20%)
Language : Russian
____________________________________________________________________________________________________________________________
© torrents.md

Качество Язык Перевод Дата добавления Размер файла Скачали Пиры Мультитрекер  
 Подробнее dvdrip Русский Оригинал (без перевода) 05.12.11 1.37 GB 19 Раздают0 Качают0 Filtered

__rotator_param_f


Категория: Комедии, Триллер
Комментариев: 0