Торренты » Фильмы торрент » Комедии » Тот самый человек / The Man

Основные разделы

Реклама

Выбор по жанрам

Реклама

Тот самый человек / The Man торрент скачать бесплатно

Торрент добавлен: 2-12-2011, 20:07 | Просмотров: 1169
Тот самый человек / The Man    торрент скачать бесплатно

Скачать фильм Тот самый человек / The Man через торрент бесплатно вы можете на данной странице открытого каталога торрентов «Мир торрентов». Если вы впервые сталкиваетесь с файлами торрент (torrent), то здесь можете ознакомиться, как скачать фильмы торрент бесплатно. Кроме торрент вы можете скачать фильм Тот самый человек / The Man через магнит ссылку, что это такое - тоже можете ознакомиться у нас. Также у вас есть возможность скачать Тот самый человек / The Man одним файлом и на большой скорости, с помощью приведенной ниже спонсорской ссылки. Приятного просмотра!

Год выхода фильма: 2005

Производство: США, Германия.

Режисёр фильма: Лес Мэйфилд.

В фильме снимались: Сэмюэл Л. Джексон,Юджин Леви,Люк Госс,Мигель Феррер

Продолжительность фильма: ~01:19:47

Коротко о фильме Тот самый человек / The Man :
˙·٠٠•●››▼_//Тот самый человек / The Man\_▼‹‹●•٠٠·˙
В результате ошибки по установлению личности тайный Федеральный агент Деррик Ванн оказывается в одной команде с самым неподходящим на то партнером — приветливым поставщиком стоматологической компании Энди Фидлером.
В череде насыщенных и невероятно веселых приключений, разворачивающихся на улицах Детройта, эта неподходящая парочка пытается провернуть искрометную операцию и тем самым распутать убийство бывшего напарника Ванна. Но по пути они обнаруживают то, чего даже и не ожидали…
Release oferit de: ,
General
Unique ID : 184605900197822007095165260051408540597 (0x8AE1CD98A089802A990E43C4D640D3B5)
Complete name : C:Usersvictor_netDesktopx264Тот самый человек. 2005.DVDRip.x264.1400mb. [MRG.victor_net].mkv
Format : Matroska
File size : 1.37 GiB
Duration : 1h 19mn
Overall bit rate : 2 451 Kbps
Encoded date : UTC 2011-11-28 16:59:53
Writing application : mkvmerge v4.9.1 ('Ich will') built on Jul 11 2011 23:53:15
Writing library : libebml v1.2.1 + libmatroska v1.1.1
Video
ID : 1
Format : AVC
Format/Info : Advanced Video Codec
Format profile : [email protected]
Format settings, CABAC : Yes
Format settings, ReFrames : 9 frames
Codec ID : V_MPEG4/ISO/AVC
Duration : 1h 19mn
Bit rate : 2 065 Kbps
Width : 720 pixels
Height : 384 pixels
Display aspect ratio : 1.875
Frame rate : 25.000 fps
Color space : YUV
Chroma subsampling : 4:2:0
Bit depth : 8 bits
Scan type : Progressive
Bits/(Pixel*Frame) : 0.299
Stream size : 1.12 GiB (82%)
Writing library : x264 core 116 r2074 2641b9e
Encoding settings : cabac=1 / ref=9 / deblock=1:-3:-3 / analyse=0x3:0x133 / me=hex / subme=7 / psy=1 / psy_rd=1.05:0.16 / mixed_ref=1 / me_range=16 / chroma_me=1 / trellis=1 / 8x8dct=1 / cqm=0 / deadzone=21,11 / fast_pskip=1 / chroma_qp_offset=-3 / threads=10 / sliced_threads=0 / nr=0 / decimate=1 / interlaced=0 / bluray_compat=0 / constrained_intra=0 / bframes=7 / b_pyramid=2 / b_adapt=0 / b_bias=3 / direct=2 / weightb=1 / open_gop=0 / weightp=2 / keyint=250 / keyint_min=25 / scenecut=40 / intra_refresh=0 / rc_lookahead=40 / rc=2pass / mbtree=1 / bitrate=2065 / ratetol=0.6 / qcomp=0.60 / qpmin=10 / qpmax=69 / qpstep=4 / cplxblur=20.0 / qblur=0.5 / ip_ratio=1.40 / aq=1:1.40
Language : English
Audio
ID : 2
Format : AC-3
Format/Info : Audio Coding 3
Mode extension : CM (complete main)
Codec ID : A_AC3
Duration : 1h 19mn
Bit rate mode : Constant
Bit rate : 384 Kbps
Channel(s) : 6 channels
Channel positions : Front: L C R, Side: L R, LFE
Sampling rate : 48.0 KHz
Bit depth : 16 bits
Compression mode : Lossy
Stream size : 219 MiB (16%)
____________________________________________________________________________________________________________________________
© torrents.md

Качество Язык Перевод Дата добавления Размер файла Скачали Пиры Мультитрекер  
 Подробнее dvdrip Русский Профессиональный (многоголосый, закадровый) 05.12.11 1.37 GB 28 Раздают0 Качают0 Filtered

__rotator_param_f


Категория: Комедии, Криминал
Комментариев: 0