Торренты » Фильмы торрент » HDTV фильмы » Как Я Встретил Вашу Маму / How I Met Your Mother

Основные разделы

Реклама

Выбор по жанрам

Реклама

Как Я Встретил Вашу Маму / How I Met Your Mother торрент скачать бесплатно

Торрент добавлен: 2-12-2011, 21:01 | Просмотров: 526
Как Я Встретил Вашу Маму / How I Met Your Mother     торрент скачать бесплатно

Скачать фильм Как Я Встретил Вашу Маму / How I Met Your Mother через торрент бесплатно вы можете на данной странице открытого каталога торрентов «Мир торрентов». Если вы впервые сталкиваетесь с файлами торрент (torrent), то здесь можете ознакомиться, как скачать фильмы торрент бесплатно. Кроме торрент вы можете скачать фильм Как Я Встретил Вашу Маму / How I Met Your Mother через магнит ссылку, что это такое - тоже можете ознакомиться у нас. Также у вас есть возможность скачать Как Я Встретил Вашу Маму / How I Met Your Mother одним файлом и на большой скорости, с помощью приведенной ниже спонсорской ссылки. Приятного просмотра!

Год выхода фильма: 2005-2006

Производство: США

Режисёр фильма: Памела Фрайман

В фильме снимались: Джош Рэднор,Джейсон Сегел,Коби Смалдерс,Нил Патрик Хэррис,Эллисон Хэнниган

Продолжительность фильма: 22 x ~21 минуты

Коротко о фильме Как Я Встретил Вашу Маму / How I Met Your Mother :
Как я встретил вашу маму — комедия про Теда и про то, как он влюбился. Все неприятности начинаются с того, что лучший друг Теда, Маршалл вдруг неожиданно сообщил, что он хочет сделать предложение своей давней подруге, Лили, воспитательнице детского сада. К тому времени Тед понимает, что ему нужно прилагать больше усилий, если он действительно надеется найти свою настоящую любовь. Помогает ему в этих поисках его друг Барни, убежденный холостяк, вечно со своим, иногда чересчур, мнением на все происходящее, со склонностью к костюмам и верным способом познакомиться с девушками. Когда Тед встречает Робин, он решает, что это любовь с первого взгляда, но у судьбы в запасе есть кое-что еще.
General
Complete name : F:HIMYM.season.1HIMYM.1x05.Okay.Awesome.[HDTV.720p].by.npe3uDeHT.mkv
Format : Matroska
File size : 583 MiB
Duration : 21mn 8s
Overall bit rate : 3 852 Kbps
Movie name : Release by npe3uDeHT
Encoded date : UTC 2011-11-22 05:18:57
Writing application : mkvmerge v5.0.1 ('Es ist Sommer') built on Oct 9 2011 11:55:43
Writing library : libebml v1.2.2 + libmatroska v1.3.0
Video
ID : 1
Format : AVC
Format/Info : Advanced Video Codec
Format profile : [email protected]
Format settings, CABAC : Yes
Format settings, ReFrames : 5 frames
Muxing mode : Container [email protected]
Codec ID : V_MPEG4/ISO/AVC
Duration : 21mn 8s
Bit rate : 3 500 Kbps
Width : 1 280 pixels
Height : 720 pixels
Display aspect ratio : 16:9
Frame rate : 25.000 fps
Color space : YUV
Chroma subsampling : 4:2:0
Bit depth : 8 bits
Scan type : Progressive
Bits/(Pixel*Frame) : 0.152
Stream size : 518 MiB (89%)
Title : 1x05 Okay Awesome
Writing library : x264 core 114 r1924 08d04a4
Encoding settings : cabac=1 / ref=5 / deblock=1:-1:-1 / analyse=0x3:0x113 / me=umh / subme=8 / psy=1 / psy_rd=1.00:0.00 / mixed_ref=1 / me_range=16 / chroma_me=1 / trellis=1 / 8x8dct=1 / cqm=0 / deadzone=21,11 / fast_pskip=1 / chroma_qp_offset=-2 / threads=12 / sliced_threads=0 / nr=0 / decimate=1 / interlaced=0 / constrained_intra=0 / bframes=3 / b_pyramid=0 / b_adapt=1 / b_bias=0 / direct=1 / weightb=1 / open_gop=0 / weightp=2 / keyint=250 / keyint_min=25 / scenecut=40 / intra_refresh=0 / rc_lookahead=40 / rc=2pass / mbtree=1 / bitrate=3500 / ratetol=1.0 / qcomp=0.60 / qpmin=10 / qpmax=51 / qpstep=4 / cplxblur=20.0 / qblur=0.5 / ip_ratio=1.40 / aq=1:1.00
Audio #1
ID : 2
Format : AC-3
Format/Info : Audio Coding 3
Mode extension : CM (complete main)
Codec ID : A_AC3
Duration : 21mn 8s
Bit rate mode : Constant
Bit rate : 160 Kbps
Channel(s) : 2 channels
Channel positions : Front: L R
Sampling rate : 48.0 KHz
Bit depth : 16 bits
Stream size : 24.2 MiB (4%)
Title : Kuraj-Bambey (AC3 2.0 160 Kbps) VO
Language : Russian
Audio #2
ID : 3
Format : AC-3
Format/Info : Audio Coding 3
Mode extension : CM (complete main)
Codec ID : A_AC3
Duration : 21mn 8s
Bit rate mode : Constant
Bit rate : 192 Kbps
Channel(s) : 2 channels
Channel positions : Front: L R
Sampling rate : 48.0 KHz
Bit depth : 16 bits
Stream size : 29.0 MiB (5%)
Title : Original (AC3 2.0 192 Kbps)
Text #1
ID : 4
Format : UTF-8
Codec ID : S_TEXT/UTF8
Codec ID/Info : UTF-8 Plain Text
Text #2
ID : 5
Format : UTF-8
Codec ID : S_TEXT/UTF8
Codec ID/Info : UTF-8 Plain Text
Language : Russian
Обсуждение сериалов

Качество Язык Перевод Дата добавления Размер файла Скачали Пиры Мультитрекер  
 Подробнее Русский Профессиональный (одноголосный) 05.12.11 12.52 GB 12 Раздают0 Качают0 Filtered

__rotator_param_f


Категория: Фильмы торрент » HDTV фильмы
Комментариев: 0