Торренты » Фильмы торрент » HDTV фильмы » XIII: Конспирация / XIII: The Conspiracy

Основные разделы

Реклама

Выбор по жанрам

Реклама

XIII: Конспирация / XIII: The Conspiracy торрент скачать бесплатно

Торрент добавлен: 2-12-2011, 21:12 | Просмотров: 658
XIII: Конспирация / XIII: The Conspiracy   торрент скачать бесплатно

Скачать фильм XIII: Конспирация / XIII: The Conspiracy через торрент бесплатно вы можете на данной странице открытого каталога торрентов «Мир торрентов». Если вы впервые сталкиваетесь с файлами торрент (torrent), то здесь можете ознакомиться, как скачать фильмы торрент бесплатно. Кроме торрент вы можете скачать фильм XIII: Конспирация / XIII: The Conspiracy через магнит ссылку, что это такое - тоже можете ознакомиться у нас. Также у вас есть возможность скачать XIII: Конспирация / XIII: The Conspiracy одним файлом и на большой скорости, с помощью приведенной ниже спонсорской ссылки. Приятного просмотра!

Год выхода фильма: 2008

Производство: Франция, Канада

Режисёр фильма: Дуан Кларк

В фильме снимались: Стивен Дорфф,Вэл Килмер,Грэг Брик,Катарина Мурано

Продолжительность фильма: 03:00:04

Коротко о фильме XIII: Конспирация / XIII: The Conspiracy :
Главный герой истории просыпается на Брайтон Бич израненным и с полной амнезией. Все ключи к прошлому сводятся к одной-единственной татуировке XIII, постепенно выводящей его на заговор против правительства США.
Релиз :
General
Complete name : D:TorrentsMDXIII.The Conspiracy.2008.BDRip.mkv
Format : Matroska
File size : 8.76 GiB
Duration : 3h 0mn
Overall bit rate : 6 961 Kbps
Encoded date : UTC 2009-03-21 13:24:10
Writing application : mkvmerge v2.4.0 ('Fumbling Towards Ecstasy') built on Oct 11 2008 20:13:15
Writing library : libebml v0.7.7 + libmatroska v0.8.1
Video
ID : 1
Format : AVC
Format/Info : Advanced Video Codec
Format profile : High@L4.1
Format settings, CABAC : Yes
Format settings, ReFrames : 5 frames
Muxing mode : Container profile=Unknown@4.1
Codec ID : V_MPEG4/ISO/AVC
Duration : 3h 0mn
Bit rate : 5 677 Kbps
Width : 1 280 pixels
Height : 720 pixels
Display aspect ratio : 16:9
Frame rate : 23.976 fps
Color space : YUV
Chroma subsampling : 4:2:0
Bit depth : 8 bits
Scan type : Progressive
Bits/(Pixel*Frame) : 0.257
Stream size : 6.97 GiB (80%)
Writing library : x264 core 66 r1109M 75b495f
Encoding settings : cabac=1 / ref=5 / deblock=1:0:0 / analyse=0x3:0x133 / me=umh / subme=7 / psy_rd=1.0:0.0 / mixed_ref=1 / me_range=16 / chroma_me=1 / trellis=1 / 8x8dct=1 / cqm=0 / deadzone=21,11 / chroma_qp_offset=-2 / threads=6 / nr=0 / decimate=0 / mbaff=0 / bframes=3 / b_pyramid=1 / b_adapt=1 / b_bias=0 / direct=1 / wpredb=1 / keyint=250 / keyint_min=25 / scenecut=40(pre) / rc=2pass / bitrate=5677 / ratetol=1.0 / qcomp=0.60 / qpmin=10 / qpmax=51 / qpstep=4 / cplxblur=20.0 / qblur=0.5 / ip_ratio=1.40 / pb_ratio=1.30 / aq=1:1.00
Audio #1
ID : 2
Format : AC-3
Format/Info : Audio Coding 3
Mode extension : CM (complete main)
Codec ID : A_AC3
Duration : 3h 0mn
Bit rate mode : Constant
Bit rate : 448 Kbps
Channel(s) : 6 channels
Channel positions : Front: L C R, Side: L R, LFE
Sampling rate : 48.0 KHz
Bit depth : 16 bits
Stream size : 577 MiB (6%)
Language : Russian
Audio #2
ID : 3
Format : AC-3
Format/Info : Audio Coding 3
Mode extension : CM (complete main)
Codec ID : A_AC3
Duration : 3h 0mn
Bit rate mode : Constant
Bit rate : 192 Kbps
Channel(s) : 2 channels
Channel positions : Front: L R
Sampling rate : 48.0 KHz
Bit depth : 16 bits
Stream size : 247 MiB (3%)
Language : Russian
Audio #3
ID : 4
Format : AC-3
Format/Info : Audio Coding 3
Mode extension : CM (complete main)
Codec ID : A_AC3
Duration : 3h 0mn
Bit rate mode : Constant
Bit rate : 640 Kbps
Channel(s) : 6 channels
Channel positions : Front: L C R, Side: L R, LFE
Sampling rate : 48.0 KHz
Bit depth : 16 bits
Stream size : 824 MiB (9%)
Language : English
Text
ID : 5
Format : UTF-8
Codec ID : S_TEXT/UTF8
Codec ID/Info : UTF-8 Plain Text
Language : Russian
Menu
00:00:00.000 : en:01
00:16:35.703 : en:02
00:33:47.067 : en:03
00:44:22.493 : en:04
01:00:49.437 : en:05
01:13:07.300 : en:06
01:30:23.001 : en:07
01:44:55.122 : en:08
01:58:37.902 : en:09
02:14:23.639 : en:10
02:27:33.678 : en:11
02:44:52.674 : en:12
03:00:04.669 : en:13

Качество Язык Перевод Дата добавления Размер файла Скачали Пиры Мультитрекер  
 Подробнее Русский Профессиональный (многоголосый, закадровый) 05.12.11 8.76 GB 12 Раздают0 Качают0 Filtered
 Подробнее Русский 05.12.11 2.70 GB 12 Раздают0 Качают0 Filtered

__rotator_param_f


Категория: Фильмы торрент » HDTV фильмы
Комментариев: 0