Торренты » Фильмы торрент » Фэнтези » Ядовитый плющ: Секретное общество / Poison Ivy: The Secret Society

Основные разделы

Реклама

Выбор по жанрам

Реклама

Ядовитый плющ: Секретное общество / Poison Ivy: The Secret Society торрент скачать бесплатно

Торрент добавлен: 2-12-2011, 20:26 | Просмотров: 584
Ядовитый плющ: Секретное общество / Poison Ivy: The Secret Society    торрент скачать бесплатно

Скачать фильм Ядовитый плющ: Секретное общество / Poison Ivy: The Secret Society через торрент бесплатно вы можете на данной странице открытого каталога торрентов «Мир торрентов». Если вы впервые сталкиваетесь с файлами торрент (torrent), то здесь можете ознакомиться, как скачать фильмы торрент бесплатно. Кроме торрент вы можете скачать фильм Ядовитый плющ: Секретное общество / Poison Ivy: The Secret Society через магнит ссылку, что это такое - тоже можете ознакомиться у нас. Также у вас есть возможность скачать Ядовитый плющ: Секретное общество / Poison Ivy: The Secret Society одним файлом и на большой скорости, с помощью приведенной ниже спонсорской ссылки. Приятного просмотра!

Год выхода фильма: 2008

Производство: США, Канада

Режисёр фильма: Джейсон Хрено

В фильме снимались: Мириам МакДональд,Шона Валдрон,Райан Кеннеди,Кристал Лоу,Грег Эвиган,Кэтрин Хикс

Продолжительность фильма: ~01:31:13

Коротко о фильме Ядовитый плющ: Секретное общество / Poison Ivy: The Secret Society :
˙·٠٠•●››▼_//Ядовитый плющ: Секретное общество / Poison Ivy: The Secret Society\_▼‹‹●•٠٠·˙
Дэниель Брукес, для друзей просто Дэйзи — сирота. Покинув ранчо своих знакомых, на котором она выросла, Дэйзи поступает в колледж. Для нее начинается новая и красивая жизнь: на нее обратил внимание красавец колледжа, сын декана, она получает долгожданную стипендию, а еще её приглашают в закрытое студенческое общество «Плющи». Но это общество нечто большее, чем просто секретное содружество. Общество состоит из страстных амбициозных искусительниц, которые яростно соблазняют, шантажируют или хладнокровно расправляются с любым, кто встанет на их пути… даже если это одна из них!
Release oferit de: ,
General
Unique ID : 236096606748437223829138338651935639075 (0xB19E8D6EB4F7971F9587F80490888623)
Complete name : C:Usersvictor_netDesktopx264Ядовитый плющ Секретное общество. 2008.DVDRip.x264.1400mb. [MRG.victor_net].mkv
Format : Matroska
File size : 1.37 GiB
Duration : 1h 31mn
Overall bit rate : 2 143 Kbps
Encoded date : UTC 2011-11-15 16:27:43
Writing application : mkvmerge v4.9.1 ('Ich will') built on Jul 11 2011 23:53:15
Writing library : libebml v1.2.1 + libmatroska v1.1.1
Video
ID : 1
Format : AVC
Format/Info : Advanced Video Codec
Format profile : High@L4.1
Format settings, CABAC : Yes
Format settings, ReFrames : 9 frames
Format settings, GOP : M=8, N=40
Codec ID : V_MPEG4/ISO/AVC
Duration : 1h 31mn
Bit rate : 1 757 Kbps
Width : 720 pixels
Height : 400 pixels
Display aspect ratio : 16:9
Frame rate : 25.000 fps
Color space : YUV
Chroma subsampling : 4:2:0
Bit depth : 8 bits
Scan type : Progressive
Bits/(Pixel*Frame) : 0.244
Stream size : 1.09 GiB (80%)
Writing library : x264 core 116 r2074 2641b9e
Encoding settings : cabac=1 / ref=9 / deblock=1:-3:-3 / analyse=0x3:0x133 / me=hex / subme=7 / psy=1 / psy_rd=1.05:0.16 / mixed_ref=1 / me_range=16 / chroma_me=1 / trellis=1 / 8x8dct=1 / cqm=0 / deadzone=21,11 / fast_pskip=1 / chroma_qp_offset=-3 / threads=10 / sliced_threads=0 / nr=0 / decimate=1 / interlaced=0 / bluray_compat=0 / constrained_intra=0 / bframes=7 / b_pyramid=2 / b_adapt=0 / b_bias=3 / direct=2 / weightb=1 / open_gop=0 / weightp=2 / keyint=250 / keyint_min=25 / scenecut=40 / intra_refresh=0 / rc_lookahead=40 / rc=2pass / mbtree=1 / bitrate=1757 / ratetol=0.6 / qcomp=0.60 / qpmin=10 / qpmax=69 / qpstep=4 / cplxblur=20.0 / qblur=0.5 / ip_ratio=1.40 / aq=1:1.40
Language : English
Audio
ID : 2
Format : AC-3
Format/Info : Audio Coding 3
Mode extension : CM (complete main)
Codec ID : A_AC3
Duration : 1h 31mn
Bit rate mode : Constant
Bit rate : 384 Kbps
Channel(s) : 6 channels
Channel positions : Front: L C R, Side: L R, LFE
Sampling rate : 48.0 KHz
Bit depth : 16 bits
Compression mode : Lossy
Delay relative to video : 24ms
Stream size : 251 MiB (18%)
Language : Russian
____________________________________________________________________________________________________________________________
© torrents.md

Качество Язык Перевод Дата добавления Размер файла Скачали Пиры Мультитрекер  
 Подробнее dvdrip Русский Профессиональный (полное дублирование) 05.12.11 1.37 GB 9 Раздают0 Качают0 Filtered

__rotator_param_f


Категория: Фильмы торрент » Фэнтези
Комментариев: 0