Торренты » Фильмы торрент » DVD фильмы » Хроники Третьего Рейха / Die Chroniken des Dritten Reiches

Основные разделы

Реклама

Выбор по жанрам

Реклама

Хроники Третьего Рейха / Die Chroniken des Dritten Reiches торрент скачать бесплатно

Торрент добавлен: 2-12-2011, 21:19 | Просмотров: 2198
Хроники Третьего Рейха   / Die Chroniken des Dritten Reiches     торрент скачать бесплатно

Скачать фильм Хроники Третьего Рейха / Die Chroniken des Dritten Reiches через торрент бесплатно вы можете на данной странице открытого каталога торрентов «Мир торрентов». Если вы впервые сталкиваетесь с файлами торрент (torrent), то здесь можете ознакомиться, как скачать фильмы торрент бесплатно. Кроме торрент вы можете скачать фильм Хроники Третьего Рейха / Die Chroniken des Dritten Reiches через магнит ссылку, что это такое - тоже можете ознакомиться у нас. Также у вас есть возможность скачать Хроники Третьего Рейха / Die Chroniken des Dritten Reiches одним файлом и на большой скорости, с помощью приведенной ниже спонсорской ссылки. Приятного просмотра!

Год выхода фильма: 2005

Производство: США

Режисёр фильма: ~

В фильме снимались: ~

Продолжительность фильма: 5 х ~ 01:00:00

Коротко о фильме Хроники Третьего Рейха / Die Chroniken des Dritten Reiches :
Эта серия документальных фильмов была смонтирована спустя многие десятилетия после окончания Второй Мировой войны. При его создании были использованы архивные материалы и эпизоды кинохроники. Вы увидите военные парады, эпизоды из мирной жизни, редкие кадры почти всех военных кампаний в которых принимала участие германская армия с 1939 по 1945 годы, действия пехоты, флота, танковых отрядов и авиации. Съёмки известных нацистких лидеров, кровавые свидетельства преступлений фашизма, кадры из освобождённых концентрационных лагерей......
Общее
Полное имя : F:TMDHroniki.Tretjego.Reiha(8.chastj.iz.9).2005.2xDVD-5DVD1VIDEO_TSVTS_01_1.VOB
Формат : MPEG-PS
Размер файла : 1024 Мбайт
Продолжительность : 28 м.
Общий поток : 4992 Кбит/сек
Видео
Идентификатор : 224 (0xE0)
Формат : MPEG Video
Версия формата : Version 2
Профиль формата : Main@Main
Параметр BVOP формата : Да
Параметр матрицы формата : По умолчанию
Параметр GOP формата : M=3, N=15
Продолжительность : 28 м.
Битрейт : 4500 Кбит/сек
Ширина : 720 пикселей
Высота : 480 пикселей
Соотношение сторон : 4:3
Частота кадров : 29,970 кадров/сек
Стандарт вещания : NTSC
Цветовое пространство : YUV
Субдискретизация насыщенности : 4:2:0
Битовая глубина : 8 бит
Тип развёртки : Чересстрочная
Порядок развёртки : Верхнее поле первое
Метод сжатия : С потерями
Бит/(Пиксели*Кадры) : 0.434
Размер потока : 925 Мбайт (90%)
Аудио #1
Идентификатор : 189 (0xBD)-128 (0x80)
Формат : AC-3
Формат/Информация : Audio Coding 3
Расширение режима : CM (complete main)
Режим смешивания : DVD-Video
Продолжительность : 28 м.
Вид битрейта : Постоянный
Битрейт : 192 Кбит/сек
Каналы : 2 канала
Расположение каналов : Front: L R
Частота : 48,0 КГц
Битовая глубина : 16 бит
Метод сжатия : С потерями
Задержка видео : -66 мс.
Размер потока : 39,4 Мбайт (4%)
Аудио #2
Идентификатор : 189 (0xBD)-129 (0x81)
Формат : AC-3
Формат/Информация : Audio Coding 3
Расширение режима : CM (complete main)
Режим смешивания : DVD-Video
Продолжительность : 28 м.
Вид битрейта : Постоянный
Битрейт : 192 Кбит/сек
Каналы : 2 канала
Расположение каналов : Front: L R
Частота : 48,0 КГц
Битовая глубина : 16 бит
Метод сжатия : С потерями
Задержка видео : -66 мс.
Размер потока : 39,4 Мбайт (4%)

Качество Язык Перевод Дата добавления Размер файла Скачали Пиры Мультитрекер  
 Подробнее Русский Профессиональный (одноголосный) 05.12.11 8.18 GB 134 Раздают0 Качают0 Filtered

__rotator_param_f


Категория: Фильмы торрент » DVD фильмы
Комментариев: 0