Торренты » Фильмы торрент » Драма » Поцелуй не для прессы

Основные разделы

Реклама

Выбор по жанрам

Реклама

Поцелуй не для прессы торрент скачать бесплатно

Торрент добавлен: 2-12-2011, 19:58 | Просмотров: 657
Поцелуй не для прессы    торрент скачать бесплатно

Скачать фильм Поцелуй не для прессы через торрент бесплатно вы можете на данной странице открытого каталога торрентов «Мир торрентов». Если вы впервые сталкиваетесь с файлами торрент (torrent), то здесь можете ознакомиться, как скачать фильмы торрент бесплатно. Кроме торрент вы можете скачать фильм Поцелуй не для прессы через магнит ссылку, что это такое - тоже можете ознакомиться у нас. Также у вас есть возможность скачать Поцелуй не для прессы одним файлом и на большой скорости, с помощью приведенной ниже спонсорской ссылки. Приятного просмотра!

Год выхода фильма: 2008

Производство: Russia

Режисёр фильма: Ольга Жулина.

В фильме снимались: Александр Белявский Александр Лойе Дарья Михайлова Андрей Панин Раиса Рязанова Владимир Виноградов Сергей Рудзевич Вячеслав Тюряев Александр Андриенко Николай Малаев ...

Продолжительность фильма: ~01:40:03

Коротко о фильме Поцелуй не для прессы :
˙·٠٠•●››▼_//«Поцелуй не для прессы»\_▼‹‹●•٠٠·˙
Рассказ о политике, о жизни и о любви. В главной мужской роли — простого ленинградца, самбиста, отлично говорящего по-немецки, достигшего больших высот в политике, снялся Андрей Панин. Но эта история о Женщине. Сильной, любящей, умной. История жены, матери, женщины, которой судьба приготовила непростую роль...У нас впервые есть возможность взглянуть на жизнь Политика с другой стороны. Это не только тот, кого мы видим в новостях, на обложках журналов, на официальных приемах, это еще глава семьи, любящий муж, заботливый отец и сын. Он прежде всего Человек. Какой он в жизни, в семье? Что у него на душе? Остается ли у него в сердце место для любви? Вот вопросы, ответы на которые пытаются найти создатели картины.
Release oferit de: ,
General
Unique ID : 206496412773398841450559099233145124280 (0x9B59C331AF5EE6EA8E0E7136C136F5B8)
Complete name : C:Usersvictor_netDesktopx264Поцелуй не для прессы. 2008.DVDRip.x264.1400mb. [MRG.victor_net].mkv
Format : Matroska
File size : 1.37 GiB
Duration : 1h 40mn
Overall bit rate : 1 954 Kbps
Encoded date : UTC 2011-12-01 15:32:20
Writing application : mkvmerge v4.9.1 ('Ich will') built on Jul 11 2011 23:53:15
Writing library : libebml v1.2.1 + libmatroska v1.1.1
Video
ID : 1
Format : AVC
Format/Info : Advanced Video Codec
Format profile : [email protected]
Format settings, CABAC : Yes
Format settings, ReFrames : 9 frames
Format settings, GOP : M=8, N=56
Codec ID : V_MPEG4/ISO/AVC
Duration : 1h 40mn
Bit rate : 1 504 Kbps
Width : 720 pixels
Height : 416 pixels
Display aspect ratio : 16:9
Frame rate : 25.000 fps
Color space : YUV
Chroma subsampling : 4:2:0
Bit depth : 8 bits
Scan type : Progressive
Bits/(Pixel*Frame) : 0.201
Stream size : 1.03 GiB (75%)
Writing library : x264 core 116 r2074 2641b9e
Encoding settings : cabac=1 / ref=9 / deblock=1:-3:-3 / analyse=0x3:0x133 / me=hex / subme=7 / psy=1 / psy_rd=1.05:0.16 / mixed_ref=1 / me_range=16 / chroma_me=1 / trellis=1 / 8x8dct=1 / cqm=0 / deadzone=21,11 / fast_pskip=1 / chroma_qp_offset=-3 / threads=10 / sliced_threads=0 / nr=0 / decimate=1 / interlaced=0 / bluray_compat=0 / constrained_intra=0 / bframes=7 / b_pyramid=2 / b_adapt=0 / b_bias=3 / direct=2 / weightb=1 / open_gop=0 / weightp=2 / keyint=250 / keyint_min=25 / scenecut=40 / intra_refresh=0 / rc_lookahead=40 / rc=2pass / mbtree=1 / bitrate=1504 / ratetol=0.6 / qcomp=0.60 / qpmin=10 / qpmax=69 / qpstep=4 / cplxblur=20.0 / qblur=0.5 / ip_ratio=1.40 / aq=1:1.40
Language : English
Audio
ID : 2
Format : AC-3
Format/Info : Audio Coding 3
Mode extension : CM (complete main)
Codec ID : A_AC3
Duration : 1h 40mn
Bit rate mode : Constant
Bit rate : 448 Kbps
Channel(s) : 6 channels
Channel positions : Front: L C R, Side: L R, LFE
Sampling rate : 48.0 KHz
Bit depth : 16 bits
Compression mode : Lossy
Stream size : 321 MiB (23%)
Language : Russian
____________________________________________________________________________________________________________________________
© torrents.md

Качество Язык Перевод Дата добавления Размер файла Скачали Пиры Мультитрекер  
 Подробнее dvdrip Русский Оригинал (без перевода) 05.12.11 1.37 GB 20 Раздают0 Качают0 Filtered

__rotator_param_f


Категория: Драма, Мелодрама
Комментариев: 0