Основные разделы

Реклама

Выбор по жанрам

Реклама

Лифт торрент скачать бесплатно

Торрент добавлен: 2-12-2011, 20:07 | Просмотров: 855
Лифт    торрент скачать бесплатно

Скачать фильм Лифт через торрент бесплатно вы можете на данной странице открытого каталога торрентов «Мир торрентов». Если вы впервые сталкиваетесь с файлами торрент (torrent), то здесь можете ознакомиться, как скачать фильмы торрент бесплатно. Кроме торрент вы можете скачать фильм Лифт через магнит ссылку, что это такое - тоже можете ознакомиться у нас. Также у вас есть возможность скачать Лифт одним файлом и на большой скорости, с помощью приведенной ниже спонсорской ссылки. Приятного просмотра!

Год выхода фильма: 2006

Производство: Россия

Режисёр фильма: Всеволод Плоткин.

В фильме снимались: Игорь Верник,Сергей Горобченко,Георгий Мартиросян,Даниил Спиваковский,Ольга Родионова

Продолжительность фильма: ~01:28:00

Коротко о фильме Лифт :
˙·٠٠•●››▼_//Лифт\_▼‹‹●•٠٠·˙
Однажды обычным летним утром из квартир, расположенных на разных этажах, вышли пятеро незнакомых людей и вошли в лифт. Двери захлопнулись за последним пассажиром и лифт начал свое движение вниз. Но проходит минута, другая, а лифт не останавливается, возникает ощущение бесконечного движения.
С каждой минутой паника перерастает в страх, ситуация выходит из под контроля. Кабина лифта превращается в замкнутое пространство, в движущуюся стрессовую ситуацию из которой невозможно выбраться. Как поведут себя пятеро людей в таком безвыходном положении? В их души закрадывается сомнение и ужас, они охвачены чувством неизбежности и отчаяния, ведь повседневное становится нереальным.
Release oferit de: ,
General
Unique ID : 193569645315537023846361831448494849280 (0x91A0285A07E23828877B3B28A9F1BD00)
Complete name : C:Usersvictor_netDesktopx264Лифт. 2006.DVDRip.x264.1400mb. [MRG.victor_net] TMD.mkv
Format : Matroska
File size : 1.37 GiB
Duration : 1h 28mn
Overall bit rate : 2 221 Kbps
Encoded date : UTC 2011-11-02 12:54:02
Writing application : mkvmerge v4.9.1 ('Ich will') built on Jul 11 2011 23:53:15
Writing library : libebml v1.2.1 + libmatroska v1.1.1
Video
ID : 1
Format : AVC
Format/Info : Advanced Video Codec
Format profile : High@L4.1
Format settings, CABAC : Yes
Format settings, ReFrames : 9 frames
Codec ID : V_MPEG4/ISO/AVC
Duration : 1h 28mn
Bit rate : 1 836 Kbps
Width : 720 pixels
Height : 384 pixels
Display aspect ratio : 1.875
Frame rate : 25.000 fps
Color space : YUV
Chroma subsampling : 4:2:0
Bit depth : 8 bits
Scan type : Progressive
Bits/(Pixel*Frame) : 0.266
Stream size : 1.10 GiB (81%)
Writing library : x264 core 116 r2074 2641b9e
Encoding settings : cabac=1 / ref=9 / deblock=1:-3:-3 / analyse=0x3:0x133 / me=hex / subme=7 / psy=1 / psy_rd=1.05:0.16 / mixed_ref=1 / me_range=16 / chroma_me=1 / trellis=1 / 8x8dct=1 / cqm=0 / deadzone=21,11 / fast_pskip=1 / chroma_qp_offset=-3 / threads=10 / sliced_threads=0 / nr=0 / decimate=1 / interlaced=0 / bluray_compat=0 / constrained_intra=0 / bframes=7 / b_pyramid=2 / b_adapt=0 / b_bias=3 / direct=2 / weightb=1 / open_gop=0 / weightp=2 / keyint=250 / keyint_min=25 / scenecut=40 / intra_refresh=0 / rc_lookahead=40 / rc=2pass / mbtree=1 / bitrate=1836 / ratetol=0.6 / qcomp=0.60 / qpmin=10 / qpmax=69 / qpstep=4 / cplxblur=20.0 / qblur=0.5 / ip_ratio=1.40 / aq=1:1.40
Language : English
Audio
ID : 2
Format : AC-3
Format/Info : Audio Coding 3
Mode extension : CM (complete main)
Codec ID : A_AC3
Duration : 1h 28mn
Bit rate mode : Constant
Bit rate : 384 Kbps
Channel(s) : 6 channels
Channel positions : Front: L C R, Side: L R, LFE
Sampling rate : 48.0 KHz
Bit depth : 16 bits
Compression mode : Lossy
Stream size : 242 MiB (17%)
Language : Russian
____________________________________________________________________________________________________________________________
© torrents.md

Качество Язык Перевод Дата добавления Размер файла Скачали Пиры Мультитрекер  
 Подробнее dvdrip Русский Оригинал (без перевода) 05.12.11 1.37 GB 19 Раздают0 Качают0 Filtered

__rotator_param_f


Категория: Фильмы торрент » Детектив
Комментариев: 0